Login
Username:
Password:
[Signup]
[Recover Account]


Browse Torrents

Poll


You must be logged in to view polls



Latest Torrents
Ghost.Brothers-Hau...
- [Size: 346.38 MB]

Killjoys.S05E10.WE...
- [Size: 617.96 MB]

Killjoys.S05E10.10...
- [Size: 1.27 GB]

Killjoys.S05E10.72...
- [Size: 826.94 MB]

General.Commander....
- [Size: 1.19 GB]


Torrent Details For "18+.The.Axiom.2019.HDRip.XviD.AC3.LLG"

18+.The.Axiom.2019.HDRip.XviD.AC3.LLG

Download this torrent | Magnet Download
Health:
Seeds: 0
Leechers: 0
Completed:
Last Checked: 27-06-2019 02:43:01
External Torrent
Update Stats



Images Host

Poster
No poster


iMDB
Title: The Axiom
Year: 2018
Runtime: 98 minutes
Votes: 42
Rating: 6.8/10
Language: English
Director: Nicholas Woods
Writing By: Nicholas Woods,
Produced By: Alex Gans,Max Landwirth,
Cast:
Hattie Smith as McKenzie
Zac Titus as Martin
Nicole Dambro as Darcy
Michael Peter Harrison as Gerrik
Taylor Flowers as Edgar
William Kircher as Leon
Aaron Berjohn as Rapax
DeJean Brown as Charl
Brandon Burtis as Ernie
Chase Cargill as Opening Drogyr


Images Host


Details
Name:18+.The.Axiom.2019.HDRip.XviD.AC3.LLG
Description:

Quote:



******************************Thumbnail:**********************

 

******************************Screenshots:********************

 Screenshot 1

 Screenshot 2

 Screenshot 3

 Screenshot 4

 Screenshot 5

 Screenshot 6

 Screenshot 7

 Screenshot 8

 Screenshot 9

 Screenshot 0


******************************************************

18+.The.Axiom.2019.HDRip.XviD.AC3.LLG.mp4
Format                                   : MPEG-4
Format profile                           : Base Media
Codec ID                                 : isom (isom/iso2/avc1/mp41)
File size                                : 1.09 GiB
Duration                                 : 1 h 38 min
Overall bit rate mode                    : Variable
Overall bit rate                         : 1 578 kb/s
Writing application                      : Lavf57.83.100

Video
ID                                       : 1
Format                                   : AVC
Format/Info                              : Advanced Video Codec
Format profile                           : [email protected]
Format settings                          : CABAC / 1 Ref Frames
Format settings, CABAC                   : Yes
Format settings, RefFrames               : 1 frame
Codec ID                                 : avc1
Codec ID/Info                            : Advanced Video Coding
Duration                                 : 1 h 38 min
Bit rate mode                            : Variable
Bit rate                                 : 1 191 kb/s
Maximum bit rate                         : 3 600 kb/s
Width                                    : 720 pixels
Height                                   : 304 pixels
Display aspect ratio                     : 2.35:1
Frame rate mode                          : Constant
Frame rate                               : 23.976 (23976/1000) FPS
Color space                              : YUV
Chroma subsampling                       : 4:2:0
Bit depth                                : 8 bits
Scan type                                : Progressive
Bits/(Pixel*Frame)                       : 0.227
Stream size                              : 841 MiB (75%)
Codec configuration box                  : avcC

Audio
ID                                       : 2
Format                                   : AC-3
Format/Info                              : Audio Coding 3
Commercial name                          : Dolby Digital
Codec ID                                 : ac-3
Duration                                 : 1 h 38 min
Bit rate mode                            : Constant
Bit rate                                 : 384 kb/s
Channel(s)                               : 6 channels
Channel layout                           : L R C LFE Ls Rs
Sampling rate                            : 48.0 kHz
Frame rate                               : 31.250 FPS (1536 SPF)
Bit depth                                : 16 bits
Compression mode                         : Lossy
Stream size                              : 271 MiB (24%)
Service kind                             : Complete Main
Default                                  : Yes
Alternate group                          : 1




********************************************************


Category:Movies > HDRips
Lang:English  English
Total Size:1.10 GB
Info Hash:c2191484f3f0e6e877324f3a4ed5568c586edc51
Added By:LifeLongg
Date Added:12-02-2019 06:13:37
Downloads:150

Ratings:Not Yet Rated (Log in to rate it)


Tracker:
udp://tracker.openbittorrent.com:80/announce


File List: 


Comments

No comments still posted

Top
Copyright 2018 Hon3yHD -|- Page Generated In 8.665257 secs.
-|- RSS Feed -|- Feed Info