Login
Username:
Password:
[Signup]
[Recover Account]


Browse Torrents

Poll


You must be logged in to view polls



Latest Torrents
Mrs.Wilson.S01E03....
- [Size: 323.06 MB]

Advanced SystemCar...
- [Size: 39.62 MB]

Halloween.Horror.T...
- [Size: 1.14 GB]

ABBYY FineReader C...
- [Size: 562.22 MB]

Party Hype.2018.AM...
- [Size: 2.57 GB]


Torrent Details For "The.Reflecting.Skin.1990.1080p.BluRay.x264.DD5.1-FGT"

The.Reflecting.Skin.1990.1080p.BluRay.x264.DD5.1-FGT

Download this torrent | Magnet Download
Health:
Seeds: 19
Leechers: 61
Completed: 31 
Last Checked: 06-12-2018 17:54:39
External Torrent
Update Stats



Images Host

Poster


iMDB
Title: The Reflecting Skin
Year: 1990
Runtime: 96 minutes
Votes: 5966
Rating: 7.0/10
Language: English
Tagline: Sometimes terrible things happen quite naturally
Director: Philip Ridley
Writing By: Philip Ridley,
Produced By: Dominic Anciano,Jim Beach,Ray Burdis,Les Kimber,Diane Roberts,
Music: Nick Bic√Ęt
Cast:
Viggo Mortensen as Cameron Dove
Lindsay Duncan as Dolphin Blue
Jeremy Cooper as Seth Dove
Sheila Moore as Ruth Dove
Duncan Fraser as Luke Dove
David Longworth as Joshua
Robert Koons as Sheriff Ticker
David Bloom as Deputy
Evan Hall as Kim
Codie Lucas Wilbee as Eben
Trailers:
Official trailer for 'The Reflecting Skin'


Watch-Free-HD     Download

Details
Name:The.Reflecting.Skin.1990.1080p.BluRay.x264.DD5.1-FGT
Description:
Video
ID : 1
Format : AVC
Format/Info : Advanced Video Codec
Format profile : [email protected]
Format settings : CABAC / 4 Ref Frames
Format settings, CABAC : Yes
Format settings, ReFrames : 4 frames
Codec ID : V_MPEG4/ISO/AVC
Duration : 1 h 35 min
Bit rate : 9 596 kb/s
Width : 1 920 pixels
Height : 1 080 pixels
Display aspect ratio : 16:9
Frame rate mode : Constant
Frame rate : 23.976 (24000/1001) FPS
Color space : YUV
Chroma subsampling : 4:2:0
Bit depth : 8 bits
Scan type : Progressive
Bits/(Pixel*Frame) : 0.193
Stream size : 6.28 GiB (96%)
Writing library : x264 core 79 r1360 528c100
Encoding settings : cabac=1 / ref=4 / deblock=1:-1:-1 / analyse=0x3:0x113 / me=umh / subme=7 / psy=1 / psy_rd=1.0:0.0 / mixed_ref=1 / me_range=16 / chroma_me=1 / trellis=2 / 8x8dct=1 / cqm=0 / deadzone=21,11 / chroma_qp_offset=-2 / threads=6 / nr=0 / decimate=1 / mbaff=0 / constrained_intra=0 / bframes=3 / b_pyramid=0 / b_adapt=2 / b_bias=0 / direct=3 / wpredb=1 / wpredp=2 / keyint=250 / keyint_min=25 / scenecut=40 / rc_lookahead=40 / rc=2pass / mbtree=1 / bitrate=9596 / ratetol=1.0 / qcomp=0.60 / qpmin=10 / qpmax=51 / qpstep=4 / cplxblur=20.0 / qblur=0.5 / vbv_maxrate=50000 / vbv_bufsize=50000 / ip_ratio=1.40 / aq=1:1.00
Language : English
Default : Yes
Forced : No

Audio
ID : 2
Format : AC-3
Format/Info : Audio Coding 3
Commercial name : Dolby Digital
Codec ID : A_AC3
Duration : 1 h 35 min
Bit rate mode : Constant
Bit rate : 224 kb/s
Channel(s) : 6 channels
Channel layout : L R C LFE Ls Rs
Sampling rate : 48.0 kHz
Frame rate : 31.250 FPS (1536 SPF)
Bit depth : 16 bits
Compression mode : Lossy
Stream size : 153 MiB (2%)
Language : English
Service kind : Complete Main
Default : No


 https://imagecurl.com/viewer.p...8089254615595045.png


 https://imagecurl.com/viewer.p...9571066445790707.png



 https://imagecurl.com/viewer.p...9317870.png[/center]
Category:Movies > 1080P Bluray
Lang:English  English
Total Size:6.56 GB
Info Hash:4b9e2300b95e1597946673233bdc5177e742be52
Added By:Scene
Date Added:06-12-2018 17:15:10
Downloads:16

Ratings:Not Yet Rated (Log in to rate it)


Tracker:
http://tracker.trackerfix.com:80/announce


File List: 


Comments

No comments still posted

Top
Copyright 2018 Hon3yHD -|- Page Generated In 0.302346 secs.
-|- RSS Feed -|- Feed Info