Login
Username:
Password:
[Signup]
[Recover Account]


Browse Torrents

Poll


You must be logged in to view polls



Latest Torrents
Nowhere.Boys.S04E0...
- [Size: 219.35 MB]

The.Flash.2014.S05...
- [Size: 2.84 GB]

Creed.2.HDCAM.XViD...
- [Size: 1.38 GB]

60.Minutes.S51E11....
- [Size: 146.65 MB]

NFL.2018.12.09.Lio...
- [Size: 3.07 GB]


Torrent Details For "Honey.Rise.Up.And.Dance.2018.1080p.HDTV.x264-PLUTONiUM"

Honey.Rise.Up.And.Dance.2018.1080p.HDTV.x264-PLUTONiUM

Download this torrent | Magnet Download
Health:
Seeds: 20
Leechers: 36
Completed: 268 
Last Checked: 09-11-2018 13:22:59
External Torrent
Update Stats



Images Host

Poster


Watch-Free-HD     Download

Details
Name:Honey.Rise.Up.And.Dance.2018.1080p.HDTV.x264-PLUTONiUM
Description:
Video
ID : 1
Format : AVC
Format/Info : Advanced Video Codec
Format profile : [email protected]
Format settings : CABAC / 4 Ref Frames
Format settings, CABAC : Yes
Format settings, ReFrames : 4 frames
Codec ID : V_MPEG4/ISO/AVC
Duration : 1 h 36 min
Bit rate : 7 347 kb/s
Width : 1 918 pixels
Height : 1 080 pixels
Display aspect ratio : 16:9
Frame rate mode : Constant
Frame rate : 25.000 FPS
Color space : YUV
Chroma subsampling : 4:2:0
Bit depth : 8 bits
Scan type : Progressive
Bits/(Pixel*Frame) : 0.142
Stream size : 4.93 GiB (93%)
Writing library : x264 core 157 r2935 545de2f
Encoding settings : cabac=1 / ref=4 / deblock=1:0:0 / analyse=0x3:0x113 / me=hex / subme=8 / psy=1 / psy_rd=1.00:0.00 / mixed_ref=1 / me_range=16 / chroma_me=1 / trellis=2 / 8x8dct=1 / cqm=0 / deadzone=21,11 / fast_pskip=1 / chroma_qp_offset=-2 / threads=12 / lookahead_threads=2 / sliced_threads=0 / nr=0 / decimate=1 / interlaced=0 / bluray_compat=0 / constrained_intra=0 / bframes=3 / b_pyramid=2 / b_adapt=1 / b_bias=0 / direct=3 / weightb=1 / open_gop=0 / weightp=2 / keyint=250 / keyint_min=25 / scenecut=40 / intra_refresh=0 / rc_lookahead=50 / rc=crf / mbtree=1 / crf=18.0 / qcomp=0.60 / qpmin=0 / qpmax=69 / qpstep=4 / ip_ratio=1.40 / aq=1:1.00
Language : English
Default : Yes
Forced : No
Color range : Limited
Matrix coefficients : BT.709

Audio
ID : 2
Format : AC-3
Format/Info : Audio Coding 3
Commercial name : Dolby Digital
Codec ID : A_AC3
Duration : 1 h 36 min
Bit rate mode : Constant
Bit rate : 384 kb/s
Channel(s) : 2 channels
Channel layout : L R
Sampling rate : 48.0 kHz
Frame rate : 31.250 FPS (1536 SPF)
Bit depth : 16 bits
Compression mode : Lossy
Stream size : 264 MiB (5%)
Language : English
Service kind : Complete Main
Default : Yes
Forced : No




 https://imagecurl.com/viewer.p...7917062.jpg[/center]
Category:TV > HDTV
Lang:English  English
Total Size:5.29 GB
Info Hash:01e6aaad10f8af6f55332d1a8ed0d7c0d843ae09
Added By:Scene
Date Added:09-11-2018 12:01:20
Downloads:35

Ratings:Not Yet Rated (Log in to rate it)


Tracker:
http://tracker.trackerfix.com:80/announce


File List: 


Comments

No comments still posted

Top
Copyright 2018 Hon3yHD -|- Page Generated In 0.715107 secs.
-|- RSS Feed -|- Feed Info