Login
Username:
Password:
[Signup]
[Recover Account]


Browse Torrents

Poll


You must be logged in to view polls



Latest Torrents
Creed 2 2018 NEW 7...
- [Size: 2.44 GB]

NFL.2018.12.09.Fal...
- [Size: 4.42 GB]

A.Christmas.in.Ten...
- [Size: 1.18 GB]

YoutubeGet 7.2.0 +...
- [Size: 42.38 MB]

Nowhere.Boys.S04E0...
- [Size: 219.35 MB]


Torrent Details For "In.a.Relationship.2018.1080p.WEB-DL.DD5.1.H264-FGT"

In.a.Relationship.2018.1080p.WEB-DL.DD5.1.H264-FGT

Download this torrent | Magnet Download
Health:
Seeds: 176
Leechers: 166
Completed: 882 
Last Checked: 09-11-2018 13:24:23
External Torrent
Update Stats



Images Host

Poster


iMDB
Title: In a Relationship
Year: 2018
Runtime: 92 minutes
Votes: 115
Rating: 5.9/10
Language: English
Tagline: Two Couples. One Summer.
Director: Sam Boyd
Writing By: Sam Boyd,
Produced By: Sam Boyd,Stephen Braun,Jorge Garcia Castro,Sergio Cortes Gomez,Narineh Hacopian,David Hunter,Andres Icaza Ballesteros,Jim Jacobsen,Lucas Jarach,Adam Paulsen,Karah Preiss,Ross Putman,Emma Roberts,Will Russell-Shapiro,David Sweeney,Nathan Waters,
Cast:
Emma Roberts as Hallie
Michael Angarano as Owen
Dree Hemingway as Willa
Patrick Gibson as Matt
Jay Ellis as Dexter
Greta Lee as Maggie
Janet Montgomery as Lindsay
Melora Walters as Mia Ziniti
Gayle Rankin as Rachel Flegelman
Andre Hyland as Persky
Trailers:
In a Relationship
In A Relationship Official Trailer


Watch-Free-HD     Download

Details
Name:In.a.Relationship.2018.1080p.WEB-DL.DD5.1.H264-FGT
Description:
Video
ID : 1
Format : AVC
Format/Info : Advanced Video Codec
Format profile : [email protected]
Format settings : CABAC / 4 Ref Frames
Format settings, CABAC : Yes
Format settings, ReFrames : 4 frames
Codec ID : V_MPEG4/ISO/AVC
Duration : 1 h 31 min
Bit rate : 5 144 kb/s
Width : 1 920 pixels
Height : 1 032 pixels
Display aspect ratio : 1.85:1
Frame rate mode : Constant
Frame rate : 23.976 (23976/1000) FPS
Color space : YUV
Chroma subsampling : 4:2:0
Bit depth : 8 bits
Scan type : Progressive
Bits/(Pixel*Frame) : 0.108
Stream size : 3.30 GiB (93%)
Title : In.a.Relationship.2018.1080p.WEB-DL.DD5.1.H264-FGT
Language : English
Default : Yes
Forced : No
Color range : Limited
Color primaries : BT.709
Transfer characteristics : BT.709
Matrix coefficients : BT.709

Audio
ID : 2
Format : AC-3
Format/Info : Audio Coding 3
Commercial name : Dolby Digital
Codec ID : A_AC3
Duration : 1 h 31 min
Bit rate mode : Constant
Bit rate : 384 kb/s
Channel(s) : 6 channels
Channel layout : L R C LFE Ls Rs
Sampling rate : 48.0 kHz
Frame rate : 31.250 FPS (1536 SPF)
Bit depth : 16 bits
Compression mode : Lossy
Stream size : 252 MiB (7%)
Title : In.a.Relationship.2018.1080p.WEB-DL.DD5.1.H264-FGT
Language : English
Service kind : Complete Main
Default : Yes
Forced : No



 https://imagecurl.com/viewer.p...0184938458965981.png


 https://imagecurl.com/viewer.p...5187515285525495.png


 https://imagecurl.com/viewer.p...5247687.png[/center]
Category:Movies > WEB-HD
Lang:English  English
Total Size:3.55 GB
Info Hash:152c3c234519a992b3e2e37c56b05902b6c740d1
Added By:Scene
Date Added:09-11-2018 11:51:13
Downloads:47

Ratings:Not Yet Rated (Log in to rate it)


Tracker:
http://tracker.trackerfix.com:80/announce


File List: 


Comments

No comments still posted

Top
Copyright 2018 Hon3yHD -|- Page Generated In 0.747060 secs.
-|- RSS Feed -|- Feed Info