Login
Username:
Password:
[Signup]
[Recover Account]


Browse Torrents

Poll


You must be logged in to view polls



Latest Torrents
Creed 2 2018 NEW 7...
- [Size: 2.44 GB]

NFL.2018.12.09.Fal...
- [Size: 4.42 GB]

A.Christmas.in.Ten...
- [Size: 1.18 GB]

YoutubeGet 7.2.0 +...
- [Size: 42.38 MB]

Nowhere.Boys.S04E0...
- [Size: 219.35 MB]


Torrent Details For "Time.Freak.2018.1080p.WEB-DL.DD5.1.H264-FGT"

Time.Freak.2018.1080p.WEB-DL.DD5.1.H264-FGT

Download this torrent | Magnet Download
Health:
Seeds: 202
Leechers: 226
Completed: 1,050 
Last Checked: 09-11-2018 13:25:10
External Torrent
Update Stats



Images Host

Poster


iMDB
Title: Time Freak
Year: 2018
Votes: 30
Rating: 7.9/10
Language: English
Director: Andrew Bowler
Writing By: Andrew Bowler,
Produced By: Justin Bursch,Ryan Cassells,Gigi Causey,Jonathan Gray,Edward H. Hamm Jr.,Qianshan Liao,Ruoming Liao,Rob Lieber,Raymond Mansfield,Sean McKittrick,Shaun Redick,Matthew Rhodes,Keith Wright,
Music: Andrew Lockington
Cast:
Mark Blockovich as Diner Patron
Mary Elizabeth Boylan as Sophia
Asa Butterfield as Stillman
Coral Chambers as Den Mother
Kami Christiansen as Frisbee Player
Christopher Escalante as Bar Patron
Gerry Garcia as
Skyler Gisondo as Evan
Caden J. Gregoire as Kyle
Cameron Harford as Frisbee Player
Trailers:
Official Trailer


Watch-Free-HD     Download

Details
Name:Time.Freak.2018.1080p.WEB-DL.DD5.1.H264-FGT
Description:
Video
ID : 1
Format : AVC
Format/Info : Advanced Video Codec
Format profile : [email protected]
Format settings : CABAC / 4 Ref Frames
Format settings, CABAC : Yes
Format settings, ReFrames : 4 frames
Codec ID : V_MPEG4/ISO/AVC
Duration : 1 h 44 min
Bit rate : 5 241 kb/s
Width : 1 908 pixels
Height : 1 028 pixels
Display aspect ratio : 1.85:1
Frame rate mode : Constant
Frame rate : 23.976 (24000/1001) FPS
Color space : YUV
Chroma subsampling : 4:2:0
Bit depth : 8 bits
Scan type : Progressive
Bits/(Pixel*Frame) : 0.111
Stream size : 3.84 GiB (93%)
Title : Time.Freak.2018.1080p.WEB-DL.DD5.1.H264-FGT
Language : English
Default : Yes
Forced : No
Color range : Limited
Color primaries : BT.709
Transfer characteristics : BT.709
Matrix coefficients : BT.709

Audio
ID : 2
Format : AC-3
Format/Info : Audio Coding 3
Commercial name : Dolby Digital
Codec ID : A_AC3
Duration : 1 h 44 min
Bit rate mode : Constant
Bit rate : 384 kb/s
Channel(s) : 6 channels
Channel layout : L R C LFE Ls Rs
Sampling rate : 48.0 kHz
Frame rate : 31.250 FPS (1536 SPF)
Bit depth : 16 bits
Compression mode : Lossy
Stream size : 288 MiB (7%)
Title : Time.Freak.2018.1080p.WEB-DL.DD5.1.H264-FGT
Language : English
Service kind : Complete Main
Default : Yes
Forced : No


 https://imagecurl.com/viewer.p...5493902912703412.png

 https://imagecurl.com/viewer.p...8324802931215710.png


 https://imagecurl.com/viewer.p...8388663.png[/center]
Category:Movies > WEB-HD
Lang:English  English
Total Size:4.12 GB
Info Hash:a85d06225bc8a06e8c72e24251f68ff74ff63919
Added By:Scene
Date Added:09-11-2018 11:40:38
Downloads:41

Ratings:Not Yet Rated (Log in to rate it)


Tracker:
http://tracker.trackerfix.com:80/announce


File List: 


Comments

No comments still posted

Top
Copyright 2018 Hon3yHD -|- Page Generated In 0.396641 secs.
-|- RSS Feed -|- Feed Info