Login
Username:
Password:
[Signup]
[Recover Account]


Browse Torrents

Poll


You must be logged in to view polls



Latest Torrents
Creed 2 2018 NEW 7...
- [Size: 2.44 GB]

NFL.2018.12.09.Fal...
- [Size: 4.42 GB]

A.Christmas.in.Ten...
- [Size: 1.18 GB]

YoutubeGet 7.2.0 +...
- [Size: 42.38 MB]

Nowhere.Boys.S04E0...
- [Size: 219.35 MB]


Torrent Details For "Sadie.2018..720p.AMZN.WEBRip.DDP5.1.x264-CM"

Sadie.2018..720p.AMZN.WEBRip.DDP5.1.x264-CM

Download this torrent | Magnet Download
Health:
Seeds: 58
Leechers: 24
Completed: 274 
Last Checked: 09-11-2018 13:26:05
External Torrent
Update Stats



Images Host

Poster


iMDB
Title: Sadie
Year: 2018
Runtime: 96 minutes
Votes: 81
Rating: 7.3/10
Language: English
Tagline: Pick Your Battles
Director: Megan Griffiths
Writing By: Megan Griffiths,
Produced By: Jonathan Caso,Sue Corcoran,Eliza Flug,Lacey Leavitt,Aron Michael Thompson,Jennessa West,
Music: Mike McCready
Cast:
Sophia Mitri Schloss as Sadie
Melanie Lynskey as Rae
John Gallagher Jr. as Cyrus
Danielle Brooks as Carla
Tony Hale as Bradley
Keith L. Williams as Francis
Tee Dennard as Deak
Justin Thomas Howell as Jesse Durantz
Tony Doupe as Dr. Ross
David Leo Schultz as Randall
Trailers:
SADIE Theatrical Trailer
Teaser Trailer


Watch-Free-HD     Download

Details
Name:Sadie.2018..720p.AMZN.WEBRip.DDP5.1.x264-CM
Description:

Video
ID : 1
Format : AVC
Format/Info : Advanced Video Codec
Format profile : [email protected]
Format settings : CABAC / 5 Ref Frames
Format settings, CABAC : Yes
Format settings, ReFrames : 5 frames
Codec ID : V_MPEG4/ISO/AVC
Duration : 1 h 36 min
Bit rate : 1 221 kb/s
Width : 1 280 pixels
Height : 688 pixels
Display aspect ratio : 1.85:1
Frame rate mode : Constant
Frame rate : 23.976 (24000/1001) FPS
Color space : YUV
Chroma subsampling : 4:2:0
Bit depth : 8 bits
Scan type : Progressive
Bits/(Pixel*Frame) : 0.058
Stream size : 840 MiB (66%)
Default : Yes
Forced : No
Color range : Limited
Color primaries : BT.709
Transfer characteristics : BT.709
Matrix coefficients : BT.709

Audio
ID : 2
Format : E-AC-3
Format/Info : Enhanced AC-3
Commercial name : Dolby Digital Plus
Codec ID : A_EAC3
Duration : 1 h 36 min
Bit rate mode : Constant
Bit rate : 640 kb/s
Channel(s) : 6 channels
Channel layout : L R C LFE Ls Rs
Sampling rate : 48.0 kHz
Frame rate : 31.250 FPS (1536 SPF)
Compression mode : Lossy
Stream size : 440 MiB (34%)
Title : English
Language : English
Service kind : Complete Main
Default : Yes
Forced : No



 https://imagecurl.com/viewer.p...5050782469595451.png


 https://imagecurl.com/viewer.p...4207097108634849.png


 https://imagecurl.com/viewer.p...6790205.png[/center]
Category:Movies > WEB-HD
Lang:English  English
Total Size:1.25 GB
Info Hash:bccba1f13f20e7af13f54626798580bbcde4aa18
Added By:Scene
Date Added:09-11-2018 11:19:44
Downloads:39

Ratings:Not Yet Rated (Log in to rate it)


Tracker:
http://tracker.trackerfix.com:80/announce


File List: 


Comments

No comments still posted

Top
Copyright 2018 Hon3yHD -|- Page Generated In 0.324312 secs.
-|- RSS Feed -|- Feed Info