Login
Username:
Password:
[Signup]
[Recover Account]


Browse Torrents

Poll


You must be logged in to view polls



Latest Torrents
YoutubeGet 7.2.0 +...
- [Size: 42.38 MB]

Nowhere.Boys.S04E0...
- [Size: 219.35 MB]

The.Flash.2014.S05...
- [Size: 2.84 GB]

Creed.2.HDCAM.XViD...
- [Size: 1.38 GB]

60.Minutes.S51E11....
- [Size: 146.65 MB]


Torrent Details For "Time.Freak.2018.720p.AMZN.WEBRip.DDP5.1.x264-NTG"

Time.Freak.2018.720p.AMZN.WEBRip.DDP5.1.x264-NTG

Download this torrent | Magnet Download
Health:
Seeds: 80
Leechers: 80
Completed: 502 
Last Checked: 09-11-2018 14:20:26
External Torrent
Update Stats



Images Host

Poster


iMDB
Title: Time Freak
Year: 2018
Votes: 30
Rating: 7.9/10
Language: English
Director: Andrew Bowler
Writing By: Andrew Bowler,
Produced By: Justin Bursch,Ryan Cassells,Gigi Causey,Jonathan Gray,Edward H. Hamm Jr.,Qianshan Liao,Ruoming Liao,Rob Lieber,Raymond Mansfield,Sean McKittrick,Shaun Redick,Matthew Rhodes,Keith Wright,
Music: Andrew Lockington
Cast:
Mark Blockovich as Diner Patron
Mary Elizabeth Boylan as Sophia
Asa Butterfield as Stillman
Coral Chambers as Den Mother
Kami Christiansen as Frisbee Player
Christopher Escalante as Bar Patron
Gerry Garcia as
Skyler Gisondo as Evan
Caden J. Gregoire as Kyle
Cameron Harford as Frisbee Player
Trailers:
Official Trailer


Watch-Free-HD     Download

Details
Name:Time.Freak.2018.720p.AMZN.WEBRip.DDP5.1.x264-NTG
Description:
Video
ID : 1
Format : AVC
Format/Info : Advanced Video Codec
Format profile : [email protected]
Format settings : CABAC / 5 Ref Frames
Format settings, CABAC : Yes
Format settings, ReFrames : 5 frames
Codec ID : V_MPEG4/ISO/AVC
Duration : 1 h 44 min
Bit rate : 1 685 kb/s
Width : 1 280 pixels
Height : 688 pixels
Display aspect ratio : 1.85:1
Frame rate mode : Constant
Frame rate : 23.976 (24000/1001) FPS
Color space : YUV
Chroma subsampling : 4:2:0
Bit depth : 8 bits
Scan type : Progressive
Bits/(Pixel*Frame) : 0.080
Stream size : 1.23 GiB (72%)
Default : Yes
Forced : No
Color range : Limited
Color primaries : BT.709
Transfer characteristics : BT.709
Matrix coefficients : BT.709

Audio
ID : 2
Format : E-AC-3
Format/Info : Enhanced AC-3
Commercial name : Dolby Digital Plus
Codec ID : A_EAC3
Duration : 1 h 44 min
Bit rate mode : Constant
Bit rate : 640 kb/s
Channel(s) : 6 channels
Channel layout : L R C LFE Ls Rs
Sampling rate : 48.0 kHz
Frame rate : 31.250 FPS (1536 SPF)
Compression mode : Lossy
Stream size : 480 MiB (28%)
Language : English
Service kind : Complete Main
Default : Yes


 https://imagecurl.com/viewer.p...9770921096666396.png


 https://imagecurl.com/viewer.p...2624183881885838.png


 https://imagecurl.com/viewer.p...2169672896866669.png
Category:Movies > WEB-HD
Lang:English  English
Total Size:1.70 GB
Info Hash:9f3d21c5b7050e6596870b6e1dc46a6505e30bcf
Added By:Scene
Date Added:09-11-2018 10:44:25
Downloads:31

Ratings:Not Yet Rated (Log in to rate it)


Tracker:
http://tracker.trackerfix.com:80/announce


File List: 


Comments

No comments still posted

Top
Copyright 2018 Hon3yHD -|- Page Generated In 0.291800 secs.
-|- RSS Feed -|- Feed Info