Login
Username:
Password:
[Signup]
[Recover Account]


Browse Torrents

Poll


You must be logged in to view polls



Latest Torrents
I Am Legend 2007 A...
- [Size: 1.09 GB]

Live.PD.S03E27.HDT...
- [Size: 1.55 GB]

All.American.S01E0...
- [Size: 999.16 MB]

Vikings.S05E13.108...
- [Size: 1.29 GB]

All.American.S01E0...
- [Size: 478.88 MB]


Torrent Details For "The Canterville Ghost 1996 x264 720p HD Dual Audio English Hindi GOPISAHI"

The Canterville Ghost 1996 x264 720p HD Dual Audio English Hindi GOPISAHI

Download this torrent | Magnet Download
Health:
Seeds: 0
Leechers: 0
Completed:
Last Checked: 04-12-2018 05:29:36
External Torrent
Update Stats



Images Host

Poster
No poster


Watch-Free-HD     Download

Details
Name:The Canterville Ghost 1996 x264 720p HD Dual Audio English Hindi GOPISAHI
Description:
 https://www.gopisahi.pw/

Format                         : Matroska

Format version                 : Version 4 / Version 2

File size                      : 586 MiB

Duration                       : 1 h 31 min

Overall bit rate               : 895 kb/s

Movie name                     : The Canterville Ghost 1996 GOPISAHI


Video

Format                         : AVC

Format/Info                    : Advanced Video Codec

Codec ID                       : V_MPEG4/ISO/AVC

Duration                       : 1 h 31 min

Bit rate                       : 699 kb/s

Width                          : 1 278 pixels

Height                         : 720 pixels

Display aspect ratio           : 16:9

Frame rate mode                : Constant

Frame rate                     : 23.976 (24000/1001) FPS

Color space                    : YUV

Chroma subsampling             : 4:2:0

Bit depth                      : 8 bits

Scan type                      : Progressive

Bits/(Pixel*Frame)             : 0.032

Stream size                    : 458 MiB (78%)

Title                          : GOPISAHI

Writing library                : x264 core 155 r2901 7d0ff22


Audio #1

Format                         : AAC

Format/Info                    : Advanced Audio Codec

Duration                       : 1 h 31 min

Bit rate                       : 96.0 kb/s

Channel(s)                     : 2 channels

Channel positions              : Front: L R

Sampling rate                  : 48.0 kHz

Frame rate                     : 46.875 FPS (1024 SPF)

Compression mode               : Lossy

Delay relative to video        : -21 ms

Stream size                    : 63.0 MiB (11%)

Title                          : GOPISAHI

Language                       : Hindi


Audio #2

Format                         : AAC

Format/Info                    : Advanced Audio Codec

Duration                       : 1 h 31 min

Bit rate                       : 96.0 kb/s

Channel(s)                     : 2 channels

Channel positions              : Front: L R

Sampling rate                  : 48.0 kHz

Frame rate                     : 46.875 FPS (1024 SPF)

Compression mode               : Lossy

Delay relative to video        : -21 ms

Stream size                    : 63.3 MiB (11%)

Title                          : GOPISAHI

Language                       : English


Category:Movies > Hollywood Dub
Lang:Hindi
Total Size:586.11 MB
Info Hash:35c710d6747706320eddd079eedb379b74c7266d
Added By:gopisahi
Date Added:14-09-2018 17:40:06
Downloads:186

Ratings:Not Yet Rated (Log in to rate it)


Tracker:
udp://tracker.torrent.eu.org:451/announce

This Torrent also has backup trackers
URLSeedersLeechersCompleted
http://retracker.spb.ru:80/announce000
http://t.nyaatracker.com:80/announce000
http://retracker.mgts.by:80/announce001
http://tracker2.itzmx.com:6961/announce000


File List: 


Comments

No comments still posted

Top
Copyright 2018 Hon3yHD -|- Page Generated In 0.456569 secs.
-|- RSS Feed -|- Feed Info