Login
Username:
Password:
[Signup]
[Recover Account]


Browse Torrents

Poll


You must be logged in to view polls



Latest Torrents
YoutubeGet 7.2.0 +...
- [Size: 42.38 MB]

Nowhere.Boys.S04E0...
- [Size: 219.35 MB]

The.Flash.2014.S05...
- [Size: 2.84 GB]

Creed.2.HDCAM.XViD...
- [Size: 1.38 GB]

60.Minutes.S51E11....
- [Size: 146.65 MB]


Torrent Details For "Genius.(2018).HDRip.1080p.Hindi.x264.AAC.DD5.1(Prfct.Sync).-.TeamTelly"

Genius.(2018).HDRip.1080p.Hindi.x264.AAC.DD5.1(Prfct.Sync).-.TeamTelly

Download this torrent | Magnet Download
Health:
Seeds: 304
Leechers: 305
Completed: 1,047 
Last Checked: 15-09-2018 16:43:42
External Torrent
Update Stats



Images Host

Poster


iMDB
Title: Genius
Year: 2018
Runtime: 165 minutes
Language: Hindi
All Genres: Action, Thriller
Tagline: Dil Ki Ladaai Dimaag Se
Director: Anil Sharma
Writing By: Anil Sharma,Anil Sharma,Sunil Sirvaiya,Amjad Ali,
Produced By: Harsh Dave,Deepak Mukut,Sunil Sharma,
Music: Monty Sharma
Cast:
Utkarsh Sharma as Vasudev Shastri (Vasu / Genius)
Ishita Chauhan as Nandini Chouhan
Mithun Chakraborty as Jai Shankar Prasad
Ayesha Jhulka as Nandini's Mother
Nawazuddin Siddiqui as MRS (Mr Sabhar Khan)
Malti Chahar as RAW agent
Dev Gill as Rajiv ranjan
Zakir Hussain as Minister
Muni Jha as Pujari Baba
Rajiv Kachroo as Jason
Trailers:
Genius Trailer


Watch-Free-HD     Download

Details
Name:Genius.(2018).HDRip.1080p.Hindi.x264.AAC.DD5.1(Prfct.Sync).-.TeamTelly
Description:




Official Webiste https://Tellytorrent.net


Watch Online & Download Easy https://LatestHDmovies.ORG



General
Unique ID                   : 34623770341538300680989585933529453017 (0x1A0C4BAD054900F81E996CCF41DF11D9)
Complete name               : C:\Users\latesthd\Downloads\Genius.(2018).HDRip.1080p.Hindi.x264.AAC.(Prfct.Sync).-.TeamTelly.mkv
Format                      : Matroska
Format version              : Version 4 / Version 2
File size                   : 3.74 GiB
Duration                    : 2 h 26 min
Overall bit rate            : 3 650 kb/s
Movie name                  : Genius.(2018).HDRip - LatestHDmovies.ORG
Encoded date                : UTC 2018-09-14 14:40:22
Writing application         : mkvmerge v26.0.0 ('In The Game') 64-bit
Writing library             : libebml v1.3.6 + libmatroska v1.4.9

Video
ID                          : 1
Format                      : AVC
Format/Info                 : Advanced Video Codec
Format profile              : [email protected]
Format settings             : CABAC / 4 Ref Frames
Format settings, CABAC      : Yes
Format settings, ReFrames   : 4 frames
Codec ID                    : V_MPEG4/ISO/AVC
Duration                    : 2 h 26 min
Bit rate                    : 3 455 kb/s
Width                       : 1 918 pixels
Height                      : 894 pixels
Display aspect ratio        : 2.40:1
Frame rate mode             : Constant
Frame rate                  : 30.000 FPS
Color space                 : YUV
Chroma subsampling          : 4:2:0
Bit depth                   : 8 bits
Scan type                   : Progressive
Bits/(Pixel*Frame)          : 0.067
Stream size                 : 3.54 GiB (95%)
Title                       : LatestHDmovies.ORG
Writing library             : x264 core 155 r2901 7d0ff22
Encoding settings           : cabac=1 / ref=2 / deblock=1:0:0 / analyse=0x1:0x111 / me=hex / subme=6 / psy=1 / psy_rd=1.00:0.00 / mixed_ref=1 / me_range=16 / chroma_me=1 / trellis=1 / 8x8dct=0 / cqm=0 / deadzone=21,11 / fast_pskip=1 / chroma_qp_offset=-2 / threads=9 / lookahead_threads=1 / sliced_threads=0 / nr=0 / decimate=1 / interlaced=0 / bluray_compat=0 / constrained_intra=0 / bframes=3 / b_pyramid=2 / b_adapt=1 / b_bias=0 / direct=1 / weightb=1 / open_gop=0 / weightp=1 / keyint=300 / keyint_min=30 / scenecut=40 / intra_refresh=0 / rc_lookahead=30 / rc=crf / mbtree=1 / crf=22.0 / qcomp=0.60 / qpmin=0 / qpmax=69 / qpstep=4 / vbv_maxrate=20000 / vbv_bufsize=25000 / crf_max=0.0 / nal_hrd=none / filler=0 / ip_ratio=1.40 / aq=1:1.00
Default                     : Yes
Forced                      : No
Color range                 : Limited
Color primaries             : BT.709
Transfer characteristics    : BT.709
Matrix coefficients         : BT.709

Audio
ID                          : 2
Format                      : AAC LC
Format/Info                 : Advanced Audio Codec Low Complexity
Codec ID                    : A_AAC-2
Duration                    : 2 h 26 min
Bit rate                    : 192 kb/s
Channel(s)                  : 2 channels
Channel layout              : L R
Sampling rate               : 48.0 kHz
Frame rate                  : 46.875 FPS (1024 SPF)
Compression mode            : Lossy
Delay relative to video     : -18 ms
Stream size                 : 202 MiB (5%)
Title                       : LatestHDmovies.ORG
Language                    : Hindi
Default                     : Yes
Forced                      : No


 
 
 
 
 
 
 
 
Category:Movies > Bollywood
Lang:Hindi
Total Size:3.74 GB
Info Hash:6055333f84cf63d4faed5271ad0cedd52372034a
Added By:LatestHDMovies
Date Added:14-09-2018 16:21:56
Downloads:636

Ratings:Not Yet Rated (Log in to rate it)


Tracker:
udp://tracker.coppersurfer.tk:6969/announce


File List: 


Comments

No comments still posted

Top
Copyright 2018 Hon3yHD -|- Page Generated In 1.802780 secs.
-|- RSS Feed -|- Feed Info