Login
Username:
Password:
[Signup]
[Recover Account]


Browse Torrents

Poll


You must be logged in to view polls



Latest Torrents
Adrishya.2018.1080...
- [Size: 5.03 GB]

Izzy.Gets.The.Fuck...
- [Size: 569.87 MB]

Lethal.Weapon.S03E...
- [Size: 1.05 GB]

Lethal.Weapon.S03E...
- [Size: 355.48 MB]

NCIS.S16E01.HDTV.x...
- [Size: 259.67 MB]


Torrent Details For "Alien Predator (2018) English HDRip - 720p - x264 - AAC - 700MB - ESub - MovCr"

Alien Predator (2018) English HDRip - 720p - x264 - AAC - 700MB - ESub - MovCr

Download this torrent | Magnet Download
Health:
Seeds: 213
Leechers: 405
Completed: 211 
Last Checked: 14-09-2018 21:15:32
External Torrent
Update Stats



Poster


iMDB
Title: Alien Predator
Year: 2018
Language: English
All Genres: Action, Horror, Sci-Fi
Tagline: Join The Hunt
Director: Jared Cohn
Writing By: Bill Hanstock,
Produced By: Paul Bales,Jarrett Furst,David Michael Latt,David Rimawi,
Music: Christopher Cano Chris Ridenhour
Cast:
Kris Black as Texas
SĂ©bastien Charmant as Malloy
Xavi Israel as
Jude B. Lanston as Sklaroff
Philip Nathanael as Hobbs
Amanda Rivas as
E.R. Ruiz as Seal Leader
Deja Soufka as Enemy Soldier
Alex West as Plante
Jon Young as Buckner



Details
Name:Alien Predator (2018) English HDRip - 720p - x264 - AAC - 700MB - ESub - MovCr
Description:
Our Site   www.movcr.com


Alien Predator (2018) English HDRip - 720p - x264 - AAC - 700MB - ESub - MovCr



 https://www.imdb.com/title/tt8633296/

 

General
Unique ID                                : 64070808295773494444682529236104309926 (0x303396BD498186BABFED2BEFC200ECA6)
Complete name                            : www.MovCr.com - Alien Predator (2018) English HDRip - 720p - x264 - AAC - 700MB - ESub - MovCr.mkv
Format                                   : Matroska
Format version                           : Version 4 / Version 2
File size                                : 724 MiB
Duration                                 : 1 h 27 min
Overall bit rate                         : 1 153 kb/s
Movie name                               : www.MovCr.com
Encoded date                             : UTC 2018-09-14 15:14:04
Writing application                      : mkvmerge v26.0.0 ('In The Game') 64-bit
Writing library                          : libebml v1.3.6 + libmatroska v1.4.9

Video
ID                                       : 1
Format                                   : AVC
Format/Info                              : Advanced Video Codec
Format profile                           : [email protected]
Format settings                          : CABAC / 4 Ref Frames
Format settings, CABAC                   : Yes
Format settings, RefFrames               : 4 frames
Codec ID                                 : V_MPEG4/ISO/AVC
Duration                                 : 1 h 27 min
Bit rate                                 : 1 088 kb/s
Width                                    : 1 280 pixels
Height                                   : 536 pixels
Display aspect ratio                     : 2.40:1
Frame rate mode                          : Constant
Frame rate                               : 23.976 (24000/1001) FPS
Color space                              : YUV
Chroma subsampling                       : 4:2:0
Bit depth                                : 8 bits
Scan type                                : Progressive
Bits/(Pixel*Frame)                       : 0.066
Stream size                              : 673 MiB (93%)
Title                                    : www.MovCr.com
Writing library                          : x264 core 155 r2901 7d0ff22
Encoding settings                        : cabac=1 / ref=2 / deblock=1:0:0 / analyse=0x3:0x113 / me=hex / subme=6 / psy=1 / psy_rd=1.00:0.00 / mixed_ref=1 / me_range=16 / chroma_me=1 / trellis=1 / 8x8dct=1 / cqm=0 / deadzone=21,11 / fast_pskip=1 / chroma_qp_offset=-2 / threads=12 / lookahead_threads=2 / sliced_threads=0 / nr=0 / decimate=1 / interlaced=0 / bluray_compat=0 / constrained_intra=0 / bframes=3 / b_pyramid=2 / b_adapt=1 / b_bias=0 / direct=1 / weightb=1 / open_gop=0 / weightp=1 / keyint=240 / keyint_min=24 / scenecut=40 / intra_refresh=0 / rc_lookahead=30 / rc=abr / mbtree=1 / bitrate=1088 / ratetol=1.0 / qcomp=0.60 / qpmin=0 / qpmax=69 / qpstep=4 / vbv_maxrate=25000 / vbv_bufsize=25000 / nal_hrd=none / filler=0 / ip_ratio=1.40 / aq=1:1.00
Language                                 : English
Default                                  : Yes
Forced                                   : No
Color range                              : Limited
Color primaries                          : BT.709
Transfer characteristics                 : BT.709
Matrix coefficients                      : BT.709

Audio
ID                                       : 2
Format                                   : AAC
Format/Info                              : Advanced Audio Codec
Format profile                           : LC
Codec ID                                 : A_AAC-2
Duration                                 : 1 h 27 min
Bit rate                                 : 78.8 kb/s
Channel(s)                               : 2 channels
Channel positions                        : Front: L R
Sampling rate                            : 48.0 kHz
Frame rate                               : 46.875 FPS (1024 SPF)
Compression mode                         : Lossy
Delay relative to video                  : -21 ms
Stream size                              : 49.5 MiB (7%)
Title                                    : www.MovCr.com
Language                                 : English
Default                                  : Yes
Forced                                   : No

Text
ID                                       : 3
Format                                   : UTF-8
Codec ID                                 : S_TEXT/UTF8
Codec ID/Info                            : UTF-8 Plain Text
Duration                                 : 1 h 24 min
Bit rate                                 : 65 b/s
Count of elements                        : 1249
Stream size                              : 40.6 KiB (0%)
Title                                    : www.MovCr.com
Language                                 : English
Default                                  : Yes
Forced                                   : No



 
 
 
 
Category:Movies > HDRips
Lang:English  English
Total Size:723.88 MB
Info Hash:1fcf10550c57689e13ba770d3f76ba4ec53237c6
Added By:Kingmaker
Date Added:14-09-2018 16:20:01
Downloads:91

Ratings:Not Yet Rated (Log in to rate it)


Tracker:
udp://tracker.coppersurfer.tk:6969/announce


File List: 


Comments

No comments still posted

RSS
This would need editing with an rss feed of your choice.

Most Active
Game.of.Thrones.S0...
- [S: 23,701 - L: 88,824]

Ghost in the Shell...
- [S: 39,601 - L: 34,822]

WWE RAW 2017 07 17...
- [S: 40,961 - L: 24,392]

WWE Clash Of Champ...
- [S: 37,417 - L: 25,933]

The.Walking.Dead.S...
- [S: 34,645 - L: 26,501]

Game.of.Thrones.S0...
- [S: 27,540 - L: 33,311]

Jumanji Welcome to...
- [S: 36,671 - L: 24,109]

Game.of.Thrones.S0...
- [S: 39,595 - L: 20,705]

Guardians of the G...
- [S: 28,939 - L: 30,810]

Arrow.S06E11.HDTV....
- [S: 39,732 - L: 18,358]


Top
Copyright 2018 Hon3yHD -|- Page Generated In 1.018648 secs.
-|- RSS Feed -|- Feed Info