Login
Username:
Password:
[Signup]
[Recover Account]


Browse Torrents

Poll


You must be logged in to view polls



Latest Torrents
Lethal.Weapon.S03E...
- [Size: 355.48 MB]

NCIS.S16E01.HDTV.x...
- [Size: 259.67 MB]

NCIS.S16E01.720p.H...
- [Size: 943.99 MB]

Patti Ke Sher.2018...
- [Size: 1.80 GB]

Conan.2018.09.24.B...
- [Size: 780.55 MB]


Torrent Details For "The Predator 2018 720p HDTS x264 [MW]"

The Predator 2018 720p HDTS x264 [MW]

Download this torrent | Magnet Download
Health:
Seeds: 1,412
Leechers: 1,269
Completed: 3,161 
Last Checked: 14-09-2018 13:53:08
External Torrent
Update Stats



Poster
No poster



Details
Name:The Predator 2018 720p HDTS x264 [MW]
Description:


 


General
Format                                   : Matroska
Format version                           : Version 4 / Version 2
File size                                : 1.15 GiB
Duration                                 : 1 h 40 min
Overall bit rate                         : 1 638 kb/s

Video
ID                                       : 1
Format                                   : AVC
Format/Info                              : Advanced Video Codec
Format profile                           : [email protected]
Format settings                          : CABAC / 4 Ref Frames
Format settings, CABAC                   : Yes
Format settings, RefFrames               : 4 frames
Codec ID                                 : V_MPEG4/ISO/AVC
Duration                                 : 1 h 40 min
Bit rate                                 : 1 400 kb/s
Width                                    : 1 280 pixels
Height                                   : 532 pixels
Display aspect ratio                     : 2.40:1
Frame rate mode                          : Constant
Frame rate                               : 29.970 (30000/1001) FPS
Color space                              : YUV
Chroma subsampling                       : 4:2:0
Bit depth                                : 8 bits
Scan type                                : Progressive
Bits/(Pixel*Frame)                       : 0.069
Stream size                              : 1 016 MiB (86%)
Writing library                          : x264 core 155 r2901 7d0ff22
Default                                  : Yes
Forced                                   : No

Audio
ID                                       : 2
Format                                   : AAC
Format/Info                              : Advanced Audio Codec
Format profile                           : LC
Codec ID                                 : A_AAC-2
Duration                                 : 1 h 40 min
Bit rate                                 : 224 kb/s
Channel(s)                               : 2 channels
Channel positions                        : Front: L R
Sampling rate                            : 48.0 kHz
Frame rate                               : 46.875 FPS (1024 SPF)
Compression mode                         : Lossy
Stream size                              : 161 MiB (14%)
Language                                 : English
Default                                  : Yes
Forced                                   : No


 https://pichub.site/image/EIGyQ
 https://pichub.site/image/EINLv
 https://pichub.site/image/EIUQd
 https://pichub.site/image/EIxd9
 https://pichub.site/image/EI0Gu
 https://pichub.site/image/EILZR
 https://pichub.site/image/EIoIs

Category:Movies > Pre-Releases
Lang:English  English
Total Size:1.15 GB
Info Hash:06c9870c436049da4d823a905729ee0f5636d460
Added By:Freaky
Date Added:14-09-2018 10:49:59
Downloads:479

Ratings:Not Yet Rated (Log in to rate it)


Tracker:
udp://tracker.coppersurfer.tk:6969/announce


File List: 


Comments

No comments still posted

RSS
This would need editing with an rss feed of your choice.

Most Active
Game.of.Thrones.S0...
- [S: 23,701 - L: 88,824]

Ghost in the Shell...
- [S: 39,601 - L: 34,822]

WWE RAW 2017 07 17...
- [S: 40,961 - L: 24,392]

WWE Clash Of Champ...
- [S: 37,417 - L: 25,933]

The.Walking.Dead.S...
- [S: 34,645 - L: 26,501]

Game.of.Thrones.S0...
- [S: 27,540 - L: 33,311]

Jumanji Welcome to...
- [S: 36,671 - L: 24,109]

Game.of.Thrones.S0...
- [S: 39,595 - L: 20,705]

Guardians of the G...
- [S: 28,939 - L: 30,810]

Arrow.S06E11.HDTV....
- [S: 39,732 - L: 18,358]


Top
Copyright 2018 Hon3yHD -|- Page Generated In 0.779811 secs.
-|- RSS Feed -|- Feed Info