Login
Username:
Password:
[Signup]
[Recover Account]


Browse Torrents

Poll


You must be logged in to view polls



Latest Torrents
I Am Legend 2007 A...
- [Size: 1.09 GB]

Live.PD.S03E27.HDT...
- [Size: 1.55 GB]

All.American.S01E0...
- [Size: 999.16 MB]

Vikings.S05E13.108...
- [Size: 1.29 GB]

All.American.S01E0...
- [Size: 478.88 MB]


Torrent Details For "Itihaas(1997) Movie 720p x264 AAC Audio-Encoded By HDprintMovies"

Itihaas(1997) Movie 720p x264 AAC Audio-Encoded By HDprintMovies

Download this torrent | Magnet Download
Health:
Seeds: 0
Leechers: 0
Completed: 18 
Last Checked: 14-10-2018 16:53:57
External Torrent
Update Stats



Images Host

Poster


iMDB
Imdb Picture Title: Itihaas
Year: 1997
Runtime: 154 minutes
Votes: 219
Rating: 3.3/10
Language: Hindi
Country: India
All Genres: Action, Drama, Romance
Plot Outline: Wealthy, powerful, and influential Thakur Digvijay Singh and beautiful Naina are bethrothed and are to be married soon. But Naina has fallen in love with the son, Karan, of Thakur's ...
Tagline: History of love
Director: Raj Kanwar
Writing By: Robin Bhatt,Raj Kanwar,Akash Khurana,Kamlesh Pandey,
Produced By: Raj Kanwar,K. Pappu,
Music: Dilip Sen Sameer Sen Naresh Sharma
Cast:
Ajay Devgn as Karan
Twinkle Khanna as Naina
Amrish Puri as Balwant
Raj Babbar as Thakur Digvijay Singh
Shakti Kapoor as Navlakhi / Dholu
Sapna Bedi as Anjali
Aruna Irani as Rukmani
Mohnish Bahl as Inspector Ujagar Pandey
Neelima Azim as Naveli
Kanchan as Ganga


Watch-Free-HD     Download

Details
Name:Itihaas(1997) Movie 720p x264 AAC Audio-Encoded By HDprintMovies
Description:
Complete name                            : Itihaas(1997) Movie 720p x264  AAC Audio-(Suman142).mp4
Format                                   : MPEG-4
Format profile                           : Base Media / Version 2
Codec ID                                 : mp42 (mp42/mp41)
File size                                : 3.02 GiB
Duration                                 : 1 h 43 min
Overall bit rate mode                    : Variable
Overall bit rate                         : 4 189 kb/s
Encoded date                             : UTC 2018-03-25 07:19:05
Tagged date                              : UTC 2018-03-25 07:22:16
TIM                                      : 00:00:00:00
TSC                                      : 25
TSZ                                      : 1

Video
ID                                       : 1
Format                                   : AVC
Format/Info                              : Advanced Video Codec
Format profile                           : [email protected]
Format settings                          : CABAC / 4 Ref Frames
Format settings, CABAC                   : Yes
Format settings, RefFrames               : 4 frames
Format settings, GOP                     : M=4, N=25
Codec ID                                 : avc1
Codec ID/Info                            : Advanced Video Coding
Duration                                 : 1 h 43 min
Bit rate                                 : 3 996 kb/s
Width                                    : 1 280 pixels
Height                                   : 720 pixels
Display aspect ratio                     : 16:9
Frame rate mode                          : Constant
Frame rate                               : 25.000 FPS
Standard                                 : PAL
Color space                              : YUV
Chroma subsampling                       : 4:2:0
Bit depth                                : 8 bits
Scan type                                : Progressive
Bits/(Pixel*Frame)                       : 0.173
Stream size                              : 2.88 GiB (95%)
Language                                 : English
Encoded date                             : UTC 2018-03-25 07:19:05
Tagged date                              : UTC 2018-03-25 07:19:05
Color range                              : Limited
Color primaries                          : BT.709
Transfer characteristics                 : BT.709
Matrix coefficients                      : BT.709

Audio
ID                                       : 2
Format                                   : AAC
Format/Info                              : Advanced Audio Codec
Format profile                           : LC
Codec ID                                 : mp4a-40-2
Duration                                 : 1 h 43 min
Source duration                          : 1 h 43 min
Bit rate mode                            : Variable
Bit rate                                 : 192 kb/s
Maximum bit rate                         : 254 kb/s
Channel(s)                               : 2 channels
Channel positions                        : Front: L R
Sampling rate                            : 48.0 kHz
Frame rate                               : 46.875 FPS (1024 SPF)
Compression mode                         : Lossy
Stream size                              : 140 MiB (5%)
Source stream size                       : 140 MiB (5%)
Language                                 : English
Encoded date                             : UTC 2018-03-25 07:19:05
Tagged date                              : UTC 2018-03-25 07:19:05

Screen Shots..




Category:Movies > Bollywood
Lang:Hindi
Total Size:3.02 GB
Info Hash:cfc0386f6ad0bc2fe85cefd8ba39549df1833dda
Added By:suman142
Date Added:25-03-2018 12:02:03
Downloads:533

Ratings:Not Yet Rated (Log in to rate it)

  


Tracker:
http://share.camoe.cn:8080/announce

This Torrent also has backup trackers
URLSeedersLeechersCompleted
http://share.camoe.cn:8080/announce000
http://t.nyaatracker.com:80/announce000
http://asnet.pw:2710/announce000
http://tracker.tfile.co:80/announce010
http://pt.lax.mx:80/announce000
https://tracker.bt-hash.com:443/announce000
http://grifon.info:80/announce000
http://retracker.spark-rostov.ru:80/announce000
http://tr.kxmp.cf:80/announce000
http://tracker.city9x.com:2710/announce004
http://tracker.tfile.me:80/announce010
http://retracker.telecom.by:80/announce000
http://tracker.electro-torrent.pl:80/announce010
https://open.kickasstracker.com:443/announce150
http://retracker.mgts.by:80/announce005
http://retracker.bashtel.ru:80/announce000
http://tracker.devil-torrents.pl:80/announce000
http://torrentsmd.eu:8080/announce020
http://ns349743.ip-91-121-106.eu:80/announce000
http://torrentsmd.me:8080/announce020
http://agusiq-torrents.pl:6969/announce070
http://fxtt.ru:80/announce000


File List: 


Comments

<< Previous      Next >>
1 - 4

[Report] Posted: 25-03-2018 at 12:36:43
Hon3yHD
Team Hon3yHD


add media info and some screen shots.. :bad

[Report] Posted: 10-04-2018 at 13:28:37
wiki



:)

[Report] Posted: 19-09-2018 at 19:52:11
africa50



Nice share mate thanks a lot

[Report] Posted: 19-09-2018 at 19:52:25
africa50



Nice share mate thanks a lot

1 - 4
<< Previous      Next >>


Top
Copyright 2018 Hon3yHD -|- Page Generated In 1.098320 secs.
-|- RSS Feed -|- Feed Info