Login
Username:
Password:
[Signup]
[Recover Account]


Browse Torrents

Poll


You must be logged in to view polls



Latest Torrents
Are.You.Afraid.of....
- [Size: 217.47 MB]

The.Dna.Of.Murder....
- [Size: 604.51 MB]

Maleficent Mistres...
- [Size: 1,008.21 MB]

Are.You.Afraid.of....
- [Size: 305.40 MB]

Are.You.Afraid.of....
- [Size: 2.47 GB]


Torrent Details For "All Creatures Big and Small 2015 x264 720p Esub BluRay Dual Audio English Hindi GOPISAHI"

All Creatures Big and Small 2015 x264 720p Esub BluRay Dual Audio English Hindi GOPISAHI

Download this torrent | Magnet Download
Health:
Seeds: 0
Leechers: 0
Completed:
Last Checked: 11-10-2019 00:35:01
External Torrent
Update Stats



Images Host

Poster
No poster


Images Host


Details
Name:All Creatures Big and Small 2015 x264 720p Esub BluRay Dual Audio English Hindi GOPISAHI
Description:
 https://www.gopisahi.xyz



All Creatures Big and Small 2015 x264 720p Esub BluRay Dual Audio English Hindi GOPISAHI

Format                         : Matroska
Format version                 : Version 4
File size                      : 754 MiB
Duration                       : 1 h 26 min
Overall bit rate               : 1 225 kb/s
Movie name                     : All Creatures Big and Small 2015 GOPISAHI

Video
Format                         : AVC
Format/Info                    : Advanced Video Codec
Format profile                 : [email protected]
Format settings                : CABAC / 4 Ref Frames
Format settings, CABAC         : Yes
Format settings, Reference fra : 4 frames
Codec ID                       : V_MPEG4/ISO/AVC
Duration                       : 1 h 26 min
Bit rate                       : 1 032 kb/s
Width                          : 1 280 pixels
Height                         : 688 pixels
Display aspect ratio           : 1.85:1
Frame rate mode                : Constant
Frame rate                     : 24.000 FPS
Color space                    : YUV
Chroma subsampling             : 4:2:0
Bit depth                      : 8 bits
Scan type                      : Progressive
Bits/(Pixel*Frame)             : 0.049
Stream size                    : 635 MiB (84%)
Title                          : GOPISAHI
Writing library                : x264 core 123 r2189 35cf912

Audio #1
Format                         : AAC LC
Duration                       : 1 h 26 min
Bit rate                       : 96.0 kb/s
Channel(s)                     : 2 channels
Channel layout                 : L R
Sampling rate                  : 48.0 kHz
Frame rate                     : 46.875 FPS (1024 SPF)
Compression mode               : Lossy
Delay relative to video        : -83 ms
Stream size                    : 59.4 MiB (8%)
Title                          : GOPISAHI
Language                       : Hindi
Default                        : Yes
Forced                         : No

Audio #2
ID                             : 3
Format                         : AAC LC
Format/Info                    : Advanced Audio Codec Low Complexity
Codec ID                       : A_AAC-2
Duration                       : 1 h 26 min
Bit rate                       : 93.5 kb/s
Channel(s)                     : 2 channels
Channel layout                 : L R
Sampling rate                  : 48.0 kHz
Frame rate                     : 46.875 FPS (1024 SPF)
Compression mode               : Lossy
Delay relative to video        : -83 ms
Stream size                    : 57.6 MiB (8%)
Title                          : GOPISAHI
Language                       : English

Text
Language                       : English





[center][/center]
Category:Movies > Hollywood Dub
Lang:Hindi
Total Size:754.22 MB
Info Hash:87767e69972472293ecf7b7c7da5250cee1d8b95
Added By:gopisahi
Date Added:11-10-2019 00:35:01
Downloads:185

Ratings:Not Yet Rated (Log in to rate it)


Tracker:
udp://tracker.coppersurfer.tk:6969/announce


File List: 


Comments

No comments still posted

Top
Copyright 2018 Hon3yHD -|- Page Generated In 15.089915 secs.
-|- RSS Feed -|- Feed Info