Login
Username:
Password:
[Signup]
[Recover Account]


Browse Torrents

Poll


You must be logged in to view polls



Latest Torrents
Are.You.Afraid.of....
- [Size: 305.40 MB]

Are.You.Afraid.of....
- [Size: 2.47 GB]

Are.You.Afraid.of....
- [Size: 1.19 GB]

The.Walking.Dead.S...
- [Size: 367.91 MB]

Chakrambaaz (2019)...
- [Size: 990.60 MB]


Torrent Details For "Take Point.2019.BDRip.XviD.AC3.LLG"

Take Point.2019.BDRip.XviD.AC3.LLG

Download this torrent | Magnet Download
Health:
Seeds: 0
Leechers: 0
Completed:
Last Checked: 21-09-2019 04:18:16
External Torrent
Update Stats



Images Host

Poster
No poster


iMDB
Title: Take Point
Year: 2018
Runtime: 119 minutes
Votes: 472
Rating: 5.5/10
Language: Korean, English
Director: Byung-woo Kim
Writing By: Byung-woo Kim,Sang-yeon Park,
Produced By: Ok Kyung Bang,Won-ki Choi,Francis Chung,Jung-woo Ha,Min Heoi Heo,Emily Hong,Inhee Hwang,Cho Hyun-woo,Mike Im,Tae-sung Jeong,Yang Jung-eun,Myung Chan Kang,Justin Kim,Young-hoon Kim,Jerry Kyoungboum Ko,Michelle Kwon,Fred Lee,Miky Lee,Park Myeong-Chan,Jihyun Ok,Min Chul Park,
Music: Lee Ju-noh Jaeil Jung
Cast:
Jung-woo Ha as Ahab
Sun-kyun Lee as Dr. Yoon
Jennifer Ehle as Agent Mackenzie
Kevin Durand as Markus
Malik Yoba as Gerald
Spencer Daniels as Logan
Julián Juaquín as Jose
Jorge-Luis Pallo as Pedro
Jeff Bosley as Dimitri
Jack Lyons as Nelson
Trailers:
Take Point


Images Host


Details
Name:Take Point.2019.BDRip.XviD.AC3.LLG
Description:

Quote:




******************************Thumbnail:**********************

 


******************************Screenshots:********************

 Screenshot 1

 Screenshot 2

 Screenshot 3

 Screenshot 4

 Screenshot 5

 Screenshot 6

 Screenshot 7

 Screenshot 8

 Screenshot 9

 Screenshot 10


***************************************************************
General
Take Point.2019.BDRip.XviD.AC3.LLG.mp4
Format                                   : MPEG-4
Format profile                           : Base Media
Codec ID                                 : isom (isom/iso2/avc1/mp41)
File size                                : 1.12 GiB
Duration                                 : 2 h 5 min
Overall bit rate mode                    : Variable
Overall bit rate                         : 1 286 kb/s
Movie name                               : Take Point
Performer                                : Byung-woo Kim
Genre                                    : Action & Adventure

Video
ID                                       : 1
Format                                   : AVC
Format/Info                              : Advanced Video Codec
Format profile                           : [email protected]
Format settings                          : CABAC / 1 Ref Frames
Format settings, CABAC                   : Yes
Format settings, Reference frames        : 1 frame
Codec ID                                 : avc1
Codec ID/Info                            : Advanced Video Coding
Duration                                 : 2 h 5 min
Bit rate mode                            : Variable
Bit rate                                 : 898 kb/s
Maximum bit rate                         : 2 700 kb/s
Width                                    : 720 pixels
Height                                   : 384 pixels
Display aspect ratio                     : 1.85:1
Frame rate mode                          : Constant
Frame rate                               : 23.976 (23976/1000) FPS
Color space                              : YUV
Chroma subsampling                       : 4:2:0
Bit depth                                : 8 bits
Scan type                                : Progressive
Bits/(Pixel*Frame)                       : 0.136
Stream size                              : 804 MiB (70%)

Audio
ID                                       : 2
Format                                   : AC-3
Format/Info                              : Audio Coding 3
Commercial name                          : Dolby Digital
Codec ID                                 : ac-3
Duration                                 : 2 h 5 min
Bit rate mode                            : Constant
Bit rate                                 : 384 kb/s
Channel(s)                               : 2 channels
Channel layout                           : L R
Sampling rate                            : 48.0 kHz
Frame rate                               : 31.250 FPS (1536 SPF)
Bit depth                                : 16 bits
Compression mode                         : Lossy
Stream size                              : 344 MiB (30%)
Title                                    : Stereo
Language                                 : English
Service kind                             : Complete Main
Default                                  : Yes

Menu #1
ID                                       : 3
Codec ID                                 : text
Duration                                 : 2 h 5 min
Language                                 : English

***************************************************************



Category:Movies > HDRips
Lang:English  English
Total Size:1.15 GB
Info Hash:6ff1f9d9f1387ec9d744f5dec35c29a2fcb1b6a4
Added By:LifeLongg
Date Added:21-09-2019 04:18:13
Downloads:14

Ratings:Not Yet Rated (Log in to rate it)


Tracker:
udp://tracker.openbittorrent.com:80/announce


File List: 


Comments

No comments still posted

Top
Copyright 2018 Hon3yHD -|- Page Generated In 20.970639 secs.
-|- RSS Feed -|- Feed Info