Login
Username:
Password:
[Signup]
[Recover Account]


Browse Torrents

Poll


You must be logged in to view polls



Latest Torrents
Are.You.Afraid.of....
- [Size: 305.40 MB]

Are.You.Afraid.of....
- [Size: 2.47 GB]

Are.You.Afraid.of....
- [Size: 1.19 GB]

The.Walking.Dead.S...
- [Size: 367.91 MB]

Chakrambaaz (2019)...
- [Size: 990.60 MB]


Torrent Details For "General.Commander.2019.BDRip.XviD.AC3.LLG"

General.Commander.2019.BDRip.XviD.AC3.LLG

Download this torrent | Magnet Download
Health:
Seeds: 0
Leechers: 0
Completed:
Last Checked: 21-09-2019 03:55:45
External Torrent
Update Stats



Images Host

Poster
No poster


iMDB
Title: General Commander
Year: 2019
Language: English
Director: Ross W. Clarkson
Philippe Martinez
Writing By: Lisa Gabriel,Philippe Martinez,Philippe Martinez,
Produced By: Lee Beasley,Karinne Behr,Betsy Dy-Liacco,Loni Farhi,Lisa Gabriel,Rey Giarmon,Philippe Martinez,Ciro Orsini,Christopher R. Santiago,Chavit Singson,
Music: Bruno Brugnano
Cast:
Steven Seagal as Jake Alexander
Ron Smoorenburg as Hayes' Henchman
Sonia Couling as Sonia Dekker
Soraya Torrens as Anna Rosen
Megan Brown as Jessica Thompson
Erdenetuya Batsukh as Tuya Alexander
Byron Gibson as Tom Benton
Mica Javier as Maria Lopez
Ruben Maria Soriquez as Santino Amato
Jai Day as Ben Harrison
Trailers:
GENERAL COMMANDER Trailer


Images Host


Details
Name:General.Commander.2019.BDRip.XviD.AC3.LLG
Description:

Quote:




******************************Thumbnail:**********************

 


******************************Screenshots:********************

 Screenshot 1

 Screenshot 2

 Screenshot 3

 Screenshot 4

 Screenshot 5

 Screenshot 6

 Screenshot 7

 Screenshot 8

 Screenshot 9

 Screenshot 10


***************************************************************
General
General.Commander.2019.BDRip.XviD.AC3.LLG.mp4
Format                                   : MPEG-4
Format profile                           : Base Media
Codec ID                                 : isom (isom/iso2/avc1/mp41)
File size                                : 1.14 GiB
Duration                                 : 1 h 25 min
Overall bit rate mode                    : Variable
Overall bit rate                         : 1 904 kb/s

Video
ID                                       : 1
Format                                   : AVC
Format/Info                              : Advanced Video Codec
Format profile                           : [email protected]
Format settings                          : CABAC / 1 Ref Frames
Format settings, CABAC                   : Yes
Format settings, Reference frames        : 1 frame
Codec ID                                 : avc1
Codec ID/Info                            : Advanced Video Coding
Duration                                 : 1 h 25 min
Bit rate mode                            : Variable
Bit rate                                 : 1 516 kb/s
Maximum bit rate                         : 4 500 kb/s
Width                                    : 720 pixels
Height                                   : 302 pixels
Display aspect ratio                     : 2.40:1
Frame rate mode                          : Constant
Frame rate                               : 23.976 (23976/1000) FPS
Color space                              : YUV
Chroma subsampling                       : 4:2:0
Bit depth                                : 8 bits
Scan type                                : Progressive
Bits/(Pixel*Frame)                       : 0.291
Stream size                              : 929 MiB (80%)

Audio
ID                                       : 2
Format                                   : AC-3
Format/Info                              : Audio Coding 3
Commercial name                          : Dolby Digital
Codec ID                                 : ac-3
Duration                                 : 1 h 25 min
Bit rate mode                            : Constant
Bit rate                                 : 384 kb/s
Channel(s)                               : 6 channels
Channel layout                           : L R C LFE Ls Rs
Sampling rate                            : 48.0 kHz
Frame rate                               : 31.250 FPS (1536 SPF)
Bit depth                                : 16 bits
Compression mode                         : Lossy
Stream size                              : 235 MiB (20%)
Title                                    : Surround
Language                                 : English
Service kind                             : Complete Main
Default                                  : Yes
Menus                                    : 3

Menu #1
ID                                       : 3
Codec ID                                 : text
Duration                                 : 1 h 25 min
Language                                 : English

***************************************************************



Category:Movies > HDRips
Lang:English  English
Total Size:1.19 GB
Info Hash:6916ff9b6a42f93b021d1aac2df82a2d21099bad
Added By:LifeLongg
Date Added:21-09-2019 03:55:45
Downloads:19

Ratings:Not Yet Rated (Log in to rate it)


Tracker:
udp://tracker.openbittorrent.com:80/announce


File List: 


Comments

No comments still posted

Top
Copyright 2018 Hon3yHD -|- Page Generated In 7.334603 secs.
-|- RSS Feed -|- Feed Info