Login
Username:
Password:
[Signup]
[Recover Account]


Browse Torrents

Poll


You must be logged in to view polls



Latest Torrents
Are.You.Afraid.of....
- [Size: 217.47 MB]

The.Dna.Of.Murder....
- [Size: 604.51 MB]

Maleficent Mistres...
- [Size: 1,008.21 MB]

Are.You.Afraid.of....
- [Size: 305.40 MB]

Are.You.Afraid.of....
- [Size: 2.47 GB]


Torrent Details For "Fast.and.Furious.Presents.Hobbs.and.Shaw.2019.1080p.KORSUB.HDRip.x264.AAC2.0-STUTTERSHIT"

Fast.and.Furious.Presents.Hobbs.and.Shaw.2019.1080p.KORSUB.HDRip.x264.AAC2.0-STUTTERSHIT

Download this torrent | Magnet Download
Health:
Seeds: 3,656
Leechers: 838
Completed: 642,764 
Last Checked: 26-09-2019 09:51:54
External Torrent
Update Stats



Images Host

Poster
No poster


iMDB
Title: Fast & Furious Presents: Hobbs & Shaw
Year: 2019
Runtime: 135 minutes
Votes: 522
Rating: 7.7/10
Language: English
Director: David Leitch
Writing By: Chris Morgan,Chris Morgan,Gary Scott Thompson,Drew Pearce,
Produced By: Kathy Chasen-Hay,Steven Chasman,Ainsley Davies,Dany Garcia,Hiram Garcia,Debra James,Dwayne Johnson,Viet Luu,Kelly McCormick,Chris Morgan,Ethan Smith,Jason Statham,
Music: Tyler Bates
Cast:
Dwayne Johnson as Hobbs
Jason Statham as Shaw
Idris Elba as Brixton
Vanessa Kirby as Hattie
Helen Mirren as Queenie
Eiza González as Madame M
Eddie Marsan as Professor Andreiko
Eliana Sua as Sam
Cliff Curtis as Jonah
Lori Pelenise Tuisano as Sefina
Trailers:
In Theatres Friday!
In Theatres Friday!
Final Trailer
Official Trailer #2
Big Game Spot
Official Trailer


Images Host


Details
Name:Fast.and.Furious.Presents.Hobbs.and.Shaw.2019.1080p.KORSUB.HDRip.x264.AAC2.0-STUTTERSHIT
Description:
 
 
 

mediainfo
 
Video
ID : 1
Format : AVC
Format/Info : Advanced Video Codec
Format profile : [email protected]
Format settings : CABAC / 4 Ref Frames
Format settings, CABAC : Yes
Format settings, Reference frames : 4 frames
Codec ID : avc1
Codec ID/Info : Advanced Video Coding
Duration : 2 h 9 min
Bit rate : 5 500 kb/s
Width : 1 920 pixels
Height : 800 pixels
Display aspect ratio : 2.40:1
Frame rate mode : Constant
Frame rate : 30.000 FPS
Color space : YUV
Chroma subsampling : 4:2:0
Bit depth : 8 bits
Scan type : Progressive
Bits/(Pixel*Frame) : 0.119
Stream size : 4.93 GiB (95%)
Title : Fast.and.Furious.Presents.Hobbs.and.Shaw.2019.1080p.KORSUB.HDRip.x264.AAC2.0-STUTTERSHIT
Writing library : x264 core 148 r2795M aaa9aa8
Encoding settings : cabac=1 / ref=4 / deblock=1:0:0 / analyse=0x3:0x113 / me=umh / subme=9 / psy=1 / psy_rd=1.00:0.00 / mixed_ref=1 / me_range=16 / chroma_me=1 / trellis=2 / 8x8dct=1 / cqm=0 / deadzone=21,11 / fast_pskip=1 / chroma_qp_offset=-2 / threads=72 / lookahead_threads=6 / sliced_threads=0 / nr=0 / decimate=1 / interlaced=0 / bluray_compat=0 / constrained_intra=0 / bframes=3 / b_pyramid=2 / b_adapt=2 / b_bias=0 / direct=3 / weightb=1 / open_gop=0 / weightp=2 / keyint=250 / keyint_min=25 / scenecut=40 / intra_refresh=0 / rc_lookahead=50 / rc=abr / mbtree=1 / bitrate=5500 / ratetol=1.0 / qcomp=0.60 / qpmin=0 / qpmax=69 / qpstep=4 / ip_ratio=1.40 / aq=1:1.00
Codec configuration box : avcC

Audio
ID : 2
Format : AAC LC
Format/Info : Advanced Audio Codec Low Complexity
Codec ID : mp4a-40-2
Duration : 2 h 9 min
Duration_LastFrame : -11 ms
Bit rate mode : Constant
Bit rate : 256 kb/s
Channel(s) : 2 channels
Channel layout : L R
Sampling rate : 48.0 kHz
Frame rate : 46.875 FPS (1024 SPF)
Compression mode : Lossy
Stream size : 237 MiB (4%)
Title : Fast.and.Furious.Presents.Hobbs.and.Shaw.2019.1080p.KORSUB.HDRip.x264.AAC2.0-STUTTERSHIT
Language : English
Default : Yes
Alternate group : 1
Trailer:  Play trailer
 https://www.imdb.com/title/tt6806448/
Category:Movies > HDRips
Lang:English  English
Total Size:5.17 GB
Info Hash:0f9e8e3c307761415aef7b4f8ca771c7e53f329c
Added By:Agent47
Date Added:19-09-2019 14:15:19
Downloads:1,902

Ratings:Not Yet Rated (Log in to rate it)


Tracker:
http://tracker.trackerfix.com:80/announce


File List: 


Comments

No comments still posted

Top
Copyright 2018 Hon3yHD -|- Page Generated In 10.607639 secs.
-|- RSS Feed -|- Feed Info