Login
Username:
Password:
[Signup]
[Recover Account]


Browse Torrents

Poll


You must be logged in to view polls



Latest Torrents
Boxing.2019.09.14....
- [Size: 202.51 MB]

Boxing.2019.09.14....
- [Size: 1.43 kB]

Boxing.2019.09.14....
- [Size: 193.14 MB]

Boxing.2019.09.14....
- [Size: 93.52 MB]

Boxing.2019.09.14....
- [Size: 159.68 MB]


Torrent Details For "Ninja Assassin 2009 x264 720p Esub BluRay Dual Audio English Hindi GOPISAHI"

Ninja Assassin 2009 x264 720p Esub BluRay Dual Audio English Hindi GOPISAHI

Download this torrent | Magnet Download
Health:
Seeds: 222
Leechers: 49
Completed: 666 
Last Checked: 13-09-2019 15:02:50
External Torrent
Update Stats



Images Host

Poster
No poster


Images Host


Details
Name:Ninja Assassin 2009 x264 720p Esub BluRay Dual Audio English Hindi GOPISAHI
Description:
 https://www.gopisahi.xyz/



Ninja Assassin 2009 x264 720p Esub BluRay Dual Audio English Hindi GOPISAHI

Format                         : Matroska
Format version                 : Version 4
File size                      : 869 MiB
Duration                       : 1 h 38 min
Overall bit rate               : 1 230 kb/s
Movie name                     : Ninja Assassin 2009 GOPISAHI

Video
Format                         : AVC
Format/Info                    : Advanced Video Codec
Format profile                 : [email protected]
Codec ID                       : V_MPEG4/ISO/AVC
Duration                       : 1 h 38 min
Bit rate                       : 899 kb/s
Width                          : 1 280 pixels
Height                         : 544 pixels
Display aspect ratio           : 2.35:1
Frame rate mode                : Constant
Frame rate                     : 23.976 (24000/1001) FPS
Color space                    : YUV
Chroma subsampling             : 4:2:0
Bit depth                      : 8 bits
Scan type                      : Progressive
Bits/(Pixel*Frame)             : 0.054
Stream size                    : 634 MiB (73%)
Title                          : GOPISAHI
Writing library                : x264 core 157 r2935 545de2f

Audio #1
Format                         : AAC LC
Duration                       : 1 h 38 min
Bit rate                       : 129 kb/s
Channel(s)                     : 2 channels
Channel layout                 : L R
Sampling rate                  : 48.0 kHz
Frame rate                     : 46.875 FPS (1024 SPF)
Compression mode               : Lossy
Delay relative to video        : -21 ms
Stream size                    : 90.7 MiB (10%)
Title                          : GOPISAHI
Language                       : Hindi

Audio #2
Format                         : AAC LC
Duration                       : 1 h 38 min
Bit rate                       : 192 kb/s
Channel(s)                     : 6 channels
Channel layout                 : C L R Ls Rs LFE
Sampling rate                  : 48.0 kHz
Frame rate                     : 46.875 FPS (1024 SPF)
Compression mode               : Lossy
Delay relative to video        : -21 ms
Stream size                    : 136 MiB (16%)
Title                          : GOPISAHI
Language                       : English

Text
Format                         : PGS
Language                       : English






Category:Movies > Hollywood Dub
Lang:Hindi
Total Size:868.59 MB
Info Hash:fdb43ac37d2cf35c6be5544468d27ce7aa648fbf
Added By:gopisahi
Date Added:11-09-2019 10:06:04
Downloads:161

Ratings:Not Yet Rated (Log in to rate it)


Tracker:
udp://tracker.coppersurfer.tk:6969/announce


File List: 


Comments

No comments still posted

Top
Copyright 2018 Hon3yHD -|- Page Generated In 14.239240 secs.
-|- RSS Feed -|- Feed Info