Login
Username:
Password:
[Signup]
[Recover Account]


Browse Torrents

Poll


You must be logged in to view polls



Latest Torrents
Boxing.2019.09.14....
- [Size: 1.43 kB]

Boxing.2019.09.14....
- [Size: 193.14 MB]

Boxing.2019.09.14....
- [Size: 93.52 MB]

Boxing.2019.09.14....
- [Size: 159.68 MB]

Boxing.2019.09.14....
- [Size: 1.43 kB]


Torrent Details For "Aladdin 2019 1080p BluRay x264 DTS 5.1 MSubS -Hon3yHD"

Aladdin 2019 1080p BluRay x264 DTS 5.1 MSubS -Hon3yHD

Download this torrent | Magnet Download
Health:
Seeds: 0
Leechers: 0
Completed:
Last Checked: 07-09-2019 20:34:26
External Torrent
Update Stats



Images Host

Poster
No poster


Images Host


Details
Name:Aladdin 2019 1080p BluRay x264 DTS 5.1 MSubS -Hon3yHD
Description:


Aladdin 2019 1080p BluRay x264 DTS 5.1 MSubS -Hon3yHD

Source : Remux @ Scene . Thanks !

Aladdin 2019 1080p BluRay x264 DTS 5.1 MSubS -Hon3yHD


Format                      : Matroska
Format version              : Version 4 / Version 2
File size                   : 4.37 GiB
Duration                    : 2 h 7 min
Overall bit rate            : 4 892 kb/s
Movie name                  : Aladdin 2019 - Hon3yHD
Encoded date                : UTC 2019-09-05 11:26:59
Writing application         : mkvmerge v37.0.0 ('Leave It') 64-bit
Writing library             : libebml v1.3.9 + libmatroska v1.5.2

Video
ID                          : 1
Format                      : AVC
Format/Info                 : Advanced Video Codec
Format profile              : [email protected]
Format settings, CABAC      : Yes
Format settings, ReFrames   : 5 frames
Codec ID                    : V_MPEG4/ISO/AVC
Duration                    : 2 h 7 min
Bit rate                    : 3 929 kb/s
Width                       : 1 920 pixels
Height                      : 804 pixels
Display aspect ratio        : 2.40:1
Frame rate mode             : Constant
Frame rate                  : 23.976 (24000/1001) FPS
Color space                 : YUV
Chroma subsampling          : 4:2:0
Bit depth                   : 8 bits
Scan type                   : Progressive
Bits/(Pixel*Frame)          : 0.106
Stream size                 : 3.51 GiB (80%)
Writing library             : x264 core 157 r2969 d4099dd
Encoding settings           : cabac=1 / ref=5 / deblock=1:-1:-1 / analyse=0x3:0x133 / me=umh / subme=9 / psy=1 / psy_rd=1.00:0.15 / mixed_ref=1 / me_range=24 / chroma_me=1 / trellis=2 / 8x8dct=1 / cqm=0 / deadzone=21,11 / fast_pskip=0 / chroma_qp_offset=-3 / threads=12 / lookahead_threads=1 / sliced_threads=0 / nr=200 / decimate=1 / interlaced=0 / bluray_compat=0 / constrained_intra=0 / bframes=3 / b_pyramid=2 / b_adapt=2 / b_bias=0 / direct=3 / weightb=1 / open_gop=0 / weightp=2 / keyint=250 / keyint_min=23 / scenecut=40 / intra_refresh=0 / rc_lookahead=60 / rc=2pass / mbtree=1 / bitrate=3929 / ratetol=1.0 / qcomp=0.60 / qpmin=0 / qpmax=69 / qpstep=4 / cplxblur=20.0 / qblur=0.5 / ip_ratio=1.40 / aq=1:1.00
Language                    : English
Default                     : Yes
Forced                      : No
Color range                 : Limited
Color primaries             : BT.709
Transfer characteristics    : BT.709
Matrix coefficients         : BT.709

Audio #1
ID                          : 2
Format                      : DTS
Format/Info                 : Digital Theater Systems
Mode                        : 16
Format settings, Endianness : Big
Codec ID                    : A_DTS
Duration                    : 2 h 7 min
Bit rate mode               : Constant
Bit rate                    : 768 kb/s
Channel(s)                  : 6 channels
Channel positions           : Front: L C R, Side: L R, LFE
Sampling rate               : 48.0 kHz
Frame rate                  : 93.750 FPS (512 spf)
Bit depth                   : 24 bits
Compression mode            : Lossy
Stream size                 : 703 MiB (16%)
Language                    : English
Default                     : Yes
Forced                      : No

Audio #2
ID                          : 3
Format                      : AC-3
Format/Info                 : Audio Coding 3
Mode extension              : CM (complete main)
Format settings, Endianness : Big
Codec ID                    : A_AC3
Duration                    : 2 h 7 min
Bit rate mode               : Constant
Bit rate                    : 192 kb/s
Channel(s)                  : 2 channels
Channel positions           : Front: L R
Sampling rate               : 48.0 kHz
Frame rate                  : 31.250 FPS (1536 spf)
Bit depth                   : 16 bits
Compression mode            : Lossy
Stream size                 : 176 MiB (4%)
Title                       : Commentary
Language                    : English
Default                     : No
Forced                      : No

Text #1
ID                          : 4
Format                      : UTF-8
Codec ID                    : S_TEXT/UTF8
Codec ID/Info               : UTF-8 Plain Text
Duration                    : 2 h 6 min
Bit rate                    : 63 b/s
Count of elements           : 2111
Stream size                 : 59.1 KiB (0%)
Language                    : English
Default                     : Yes
Forced                      : No

Text #2
ID                          : 5
Format                      : UTF-8
Codec ID                    : S_TEXT/UTF8
Codec ID/Info               : UTF-8 Plain Text
Duration                    : 2 h 7 min
Bit rate                    : 72 b/s
Count of elements           : 2429
Stream size                 : 67.4 KiB (0%)
Language                    : English
Default                     : No
Forced                      : No

Text #3
ID                          : 6
Format                      : UTF-8
Codec ID                    : S_TEXT/UTF8
Codec ID/Info               : UTF-8 Plain Text
Duration                    : 2 h 6 min
Bit rate                    : 60 b/s
Count of elements           : 1800
Stream size                 : 56.1 KiB (0%)
Language                    : French
Default                     : No
Forced                      : No

Text #4
ID                          : 7
Format                      : UTF-8
Codec ID                    : S_TEXT/UTF8
Codec ID/Info               : UTF-8 Plain Text
Duration                    : 2 h 0 min
Bit rate                    : 62 b/s
Count of elements           : 1785
Stream size                 : 54.8 KiB (0%)
Language                    : Spanish
Default                     : No
Forced                      : No

Text #5
ID                          : 8
Format                      : UTF-8
Codec ID                    : S_TEXT/UTF8
Codec ID/Info               : UTF-8 Plain Text
Duration                    : 1 h 58 min
Bit rate                    : 0 b/s
Count of elements           : 41
Stream size                 : 764 Bytes (0%)
Language                    : French
Default                     : No
Forced                      : No

Text #6
ID                          : 9
Format                      : UTF-8
Codec ID                    : S_TEXT/UTF8
Codec ID/Info               : UTF-8 Plain Text
Duration                    : 1 h 11 min
Bit rate                    : 0 b/s
Count of elements           : 2
Stream size                 : 25.0 Bytes (0%)
Language                    : Spanish
Default                     : No
Forced                      : No

Menu
00:00:00.000                : en:Chapter 01
00:04:49.372                : en:Chapter 02
00:13:04.658                : en:Chapter 03
00:18:55.759                : en:Chapter 04
00:26:18.410                : en:Chapter 05
00:30:26.324                : en:Chapter 06
00:39:51.889                : en:Chapter 07
00:54:50.161                : en:Chapter 08
01:02:18.651                : en:Chapter 09
01:09:19.488                : en:Chapter 10
01:21:53.033                : en:Chapter 11
01:33:51.417                : en:Chapter 12
01:38:48.380                : en:Chapter 13
01:45:19.396                : en:Chapter 14
01:53:07.030                : en:Chapter 15
01:59:38.462                : en:Chapter 16



 
 
 
 

Category:Movies > 1080P Bluray
Lang:English  English
Total Size:4.41 GB
Info Hash:938be450cbd79d2fa052bb7f6c627e1a1e03b292
Added By:Hon3y
Date Added:07-09-2019 20:34:26
Downloads:767

Ratings:Not Yet Rated (Log in to rate it)


Tracker:
udp://tracker.coppersurfer.tk:6969/announce


File List: 


Comments

No comments still posted

Top
Copyright 2018 Hon3yHD -|- Page Generated In 2.861446 secs.
-|- RSS Feed -|- Feed Info