Login
Username:
Password:
[Signup]
[Recover Account]


Browse Torrents

Poll


You must be logged in to view polls



Latest Torrents
Fear.the.Walking.D...
- [Size: 230.93 MB]

Preacher.S04E05.Xv...
- [Size: 351.86 MB]

Fear.the.Walking.D...
- [Size: 420.19 MB]

Geordie.OGs.S01E02...
- [Size: 256.22 MB]

Fear.the.Walking.D...
- [Size: 834.88 MB]


Torrent Details For "Aladdin.2019.1080p.HDRip.x264.DD5.1-SHITBOX"

Aladdin.2019.1080p.HDRip.x264.DD5.1-SHITBOX

Download this torrent | Magnet Download
Health:
Seeds: 1,932
Leechers: 6,981
Completed: 5,641 
Last Checked: 06-08-2019 21:01:51
External Torrent
Update Stats



Images Host

Poster
No poster


iMDB
Title: Aladdin
Year: 2019
Runtime: 128 minutes
Votes: 2668
Rating: 6.5/10
Language: English
Tagline: The magic comes to life
Director: Guy Ritchie
Writing By: John August,Guy Ritchie,
Produced By: Ivan Atkinson,Kevin De La Noy,Jonathan Eirich,Max Keene,Dan Lin,Karl McMillan,Mark Mostyn,Marc Platt,
Music: Alan Menken
Cast:
Will Smith as Genie / Mariner
Mena Massoud as Aladdin
Naomi Scott as Jasmine
Marwan Kenzari as Jafar
Navid Negahban as Sultan
Nasim Pedrad as Dalia
Billy Magnussen as Prince Anders
Jordan A. Nash as Omar
Taliyah Blair ">Taliyah Blair as Lian
Aubrey Lin as Omi
Trailers:
Aladdin
"Basics" TV Spot
"Rags to Wishes" TV Spot
"Connection" TV Spot
Disney's Aladdin
Disney's Aladdin
Official Trailer
Special Look
Teaser Trailer


Images Host


Details
Name:Aladdin.2019.1080p.HDRip.x264.DD5.1-SHITBOX
Description:
 

 
 
 

Video
ID : 1
Format : AVC
Format/Info : Advanced Video Codec
Format profile : [email protected]
Format settings : CABAC / 4 Ref Frames
Format settings, CABAC : Yes
Format settings, Reference frames : 4 frames
Codec ID : V_MPEG4/ISO/AVC
Duration : 2 h 7 min
Bit rate : 6 000 kb/s
Width : 1 920 pixels
Height : 1 080 pixels
Display aspect ratio : 16:9
Frame rate mode : Constant
Frame rate : 23.976 (24000/1001) FPS
Color space : YUV
Chroma subsampling : 4:2:0
Bit depth : 8 bits
Scan type : Progressive
Bits/(Pixel*Frame) : 0.121
Stream size : 5.32 GiB (94%)
Title : Aladdin.2019.1080p.HDRip.x264.DD5.1-SHITBOX
Writing library : x264 core 152 r2854 e9a5903
Encoding settings : cabac=1 / ref=3 / deblock=1:0:0 / analyse=0x3:0x133 / me=hex / subme=7 / psy=1 / psy_rd=1.00:0.00 / mixed_ref=1 / me_range=16 / chroma_me=1 / trellis=1 / 8x8dct=1 / cqm=0 / deadzone=21,11 / fast_pskip=1 / chroma_qp_offset=-2 / threads=24 / lookahead_threads=4 / sliced_threads=0 / nr=0 / decimate=1 / interlaced=0 / bluray_compat=0 / constrained_intra=0 / bframes=3 / b_pyramid=2 / b_adapt=1 / b_bias=0 / direct=1 / weightb=1 / open_gop=0 / weightp=2 / keyint=250 / keyint_min=25 / scenecut=40 / intra_refresh=0 / rc_lookahead=40 / rc=abr / mbtree=1 / bitrate=6000 / ratetol=1.0 / qcomp=0.60 / qpmin=10 / qpmax=51 / qpstep=4 / ip_ratio=1.40 / aq=1:1.00
Default : Yes
Forced : No

Audio
ID : 2
Format : AC-3
Format/Info : Audio Coding 3
Commercial name : Dolby Digital
Codec ID : A_AC3
Duration : 2 h 7 min
Bit rate mode : Constant
Bit rate : 384 kb/s
Channel(s) : 6 channels
Channel layout : L R C LFE Ls Rs
Sampling rate : 48.0 kHz
Frame rate : 31.250 FPS (1536 SPF)
Bit depth : 16 bits
Compression mode : Lossy
Stream size : 351 MiB (6%)
Title : Aladdin.2019.1080p.HDRip.x264.DD5.1-SHITBOX
Language : English
Service kind : Complete Main
Default : Yes
Forced : No

Text #1
ID : 3
Format : UTF-8
Codec ID : S_TEXT/UTF8
Codec ID/Info : UTF-8 Plain Text
Duration : 1 h 58 min
Bit rate : 50 b/s
Count of elements : 1682
Stream size : 43.4 KiB (0%)
Language : English
Default : Yes
Forced : No

Text #2
ID : 4
Format : UTF-8
Codec ID : S_TEXT/UTF8
Codec ID/Info : UTF-8 Plain Text
Duration : 2 h 7 min
Bit rate : 69 b/s
Count of elements : 2433
Stream size : 65.1 KiB (0%)
Title : SDH
Language : English
Default : No
Forced : No
Category:Movies > HDRips
Lang:English  English
Total Size:5.67 GB
Info Hash:367706a3e5f4e556ff909d56b3707762fb9ac805
Added By:Agent47
Date Added:06-08-2019 20:56:27
Downloads:1,545

Ratings:Not Yet Rated (Log in to rate it)


Tracker:
http://tracker.trackerfix.com:80/announce


File List: 


Comments

No comments still posted

Top
Copyright 2018 Hon3yHD -|- Page Generated In 7.808222 secs.
-|- RSS Feed -|- Feed Info