Login
Username:
Password:
[Signup]
[Recover Account]


Browse Torrents

Poll


You must be logged in to view polls



Latest Torrents
Zubaan 2016 x264 7...
- [Size: 872.18 MB]

18+.American.Dream...
- [Size: 1.26 GB]

Setters.2019.HINDI...
- [Size: 897.11 MB]

18+.Daddy Issues 2...
- [Size: 1.15 GB]

Ready (2011) Hindi...
- [Size: 1.15 GB]


Torrent Details For "Ranbanka.2018.NTSC.DVD.9.DD.5.1.ESUBS.Telly.Exclusive"

Ranbanka.2018.NTSC.DVD.9.DD.5.1.ESUBS.Telly.Exclusive

Download this torrent | Magnet Download
Health:
Seeds: 25
Leechers: 0
Completed:
Last Checked: 15-09-2019 23:05:18
External Torrent
Update Stats



Images Host

Poster
No poster


Images Host


Details
Name:Ranbanka.2018.NTSC.DVD.9.DD.5.1.ESUBS.Telly.Exclusive
Description:


 



********************************

Ranbanka.2018.NTSC.DVD.9.DD.5.1.ESUBS.Telly.Exclusive

********************************

Mediainfo:- Format                      : MPEG-PS
File size                   : 1 024 MiB
Duration                    : 37mn 40s
Overall bit rate            : 3 800 Kbps

Video
ID                          : 224 (0xE0)
Format                      : MPEG Video
Format version              : Version 2
Format profile              : [email protected]
Format settings, BVOP       : Yes
Format settings, Matrix     : Custom
Format settings, GOP        : Variable
Format settings, picture st : Frame
Duration                    : 37mn 40s
Bit rate                    : 3 052 Kbps
Width                       : 720 pixels
Height                      : 480 pixels
Display aspect ratio        : 16:9
Frame rate                  : 29.970 fps
Standard                    : NTSC
Color space                 : YUV
Chroma subsampling          : 4:2:0
Bit depth                   : 8 bits
Scan type                   : Interlaced
Scan order                  : Top Field First
Compression mode            : Lossy
Bits/(Pixel*Frame)          : 0.295
Time code of first frame    : 00:00:00:00
Time code source            : Group of pictures header
Stream size                 : 822 MiB (80%)

Audio #1
ID                          : 189 (0xBD)-128 (0x80)
Format                      : AC-3
Format/Info                 : Audio Coding 3
Mode extension              : CM (complete main)
Format settings, Endianness : Big
Muxing mode                 : DVD-Video
Duration                    : 37mn 40s
Bit rate mode               : Constant
Bit rate                    : 448 Kbps
Channel(s)                  : 6 channels
Channel positions           : Front: L C R, Side: L R, LFE
Sampling rate               : 48.0 KHz
Bit depth                   : 16 bits
Compression mode            : Lossy
Stream size                 : 121 MiB (12%)

Audio #2
ID                          : 189 (0xBD)-129 (0x81)
Format                      : AC-3
Format/Info                 : Audio Coding 3
Mode extension              : CM (complete main)
Format settings, Endianness : Big
Muxing mode                 : DVD-Video
Duration                    : 37mn 40s
Bit rate mode               : Constant
Bit rate                    : 224 Kbps
Channel(s)                  : 2 channels
Channel positions           : Front: L R
Sampling rate               : 48.0 KHz
Bit depth                   : 16 bits
Compression mode            : Lossy
Stream size                 : 60.4 MiB (6%)

Text
ID                          : 189 (0xBD)-32 (0x20)
Format                      : RLE
Format/Info                 : Run-length encoding
Muxing mode                 : DVD-Video
Duration                    : 37mn 29s
Delay relative to video     : 767ms

Menu


********************************

Wherever you Share our Stuffs, Give Proper Credit to "mkvCinemas @Team Telly"
We Keep All Torrents. In case of re-seed, please pm.


********************************

 
 
 
 
 
 
 

********************************

 

********************************
Category:Movies > DVD9
Lang:Hindi
Total Size:2.82 GB
Info Hash:4812198394cb34a2a6ba618a98c52a6dcb8588a2
Added By:mkvCinemas
Date Added:01-05-2019 16:31:50
Downloads:256

Ratings:Not Yet Rated (Log in to rate it)


Tracker:
udp://tracker.coppersurfer.tk:6969/announce

This Torrent also has backup trackers
URLSeedersLeechersCompleted
http://tracker3.itzmx.com:6961/announce800
http://tracker1.itzmx.com:8080/announce800
http://tracker.electro-torrent.pl:80/announce000


File List: 


Comments

No comments still posted

Top
Copyright 2018 Hon3yHD -|- Page Generated In 9.592748 secs.
-|- RSS Feed -|- Feed Info